Jump to content


Photo

Cue Sheet Error


  • Please log in to reply
No replies to this topic

#1 XDelusion

XDelusion

    X-S Hacker

  • Members
  • PipPipPipPipPipPip
  • 2,013 posts
  • Location:Your Location
  • Interests:DOOM, Star Wars (Books Comics), Natural Law.
  • Xbox Version:v1.1
  • 360 version:none

Posted 21 February 2005 - 01:22 AM

It has been a couple years since I've had to mess with Cue sheets. Anyhow I was trying to burn some CD's and Alchohol and Nero are saying that there are errors in the CUE file. Specifically in line 3.

I ripped these games a LONG time ago, and forget what I used. (don't worry I own them still). Can someone have a look at this and tell what could be wrong, thankx!

---------------

FILE "Crossed Swords 2 - Track 01.iso" BINARY
TRACK 01 MODE1/2048
INDEX 01 00:00:00
FILE "Crossed Swords 2 - Track 02.mp3" MP3
TRACK 02 AUDIO
PREGAP 00:03:00
INDEX 01 00:00:00
FILE "Crossed Swords 2 - Track 03.mp3" MP3
TRACK 03 AUDIO
INDEX 01 00:00:00
FILE "Crossed Swords 2 - Track 04.mp3" MP3

----------------ETC----------------------




0 user(s) are reading this topic

0 members, 0 guests, 0 anonymous users