Jump to content


Photo

Video Stuttering With Ac3 Sound...


  • Please log in to reply
46 replies to this topic

#46 misteromar

misteromar

    X-S Young Member

  • Members
  • Pip
  • 37 posts

Posted 10 January 2012 - 01:36 PM

I re-encoded the uadio to mp3 stereo and video still occasionally stutters.

It is mostly in panning shots, it is a slight judder and only happens with some avi's.



I dont think stutter has to do with AC3 audio, that is a red herring.

I think it is to do with the video settings, most scene rips work fine, this one cause me trouble because he dosnt use scene standards. it looks good but it causes playback issues.

General
Complete name : Tinker.Tailor.Soldier.Spy.2011.R5.DVDRip.XVID.AC3.HQ.Hive-CM8.avi
Format : AVI
Format/Info : Audio Video Interleave
File size : 1.79 GiB
Duration : 2h 2mn
Overall bit rate : 2 093 Kbps
Writing application : Nandub v1.0rc2
Writing library : Nandub build 1853/release

Video
ID : 0
Format : MPEG-4 Visual
Format profile : Advanced Simple@L5
Format settings, BVOP : 2
Format settings, QPel : Yes
Format settings, GMC : No warppoints
Format settings, Matrix : Default (H.263)
Muxing mode : Packed bitstream
Codec ID : XVID
Codec ID/Hint : XviD
Duration : 2h 2mn
Bit rate : 1 700 Kbps
Width : 720 pixels
Height : 304 pixels
Display aspect ratio : 2.35:1
Frame rate : 25.000 fps
Color space : YUV
Chroma subsampling : 4:2:0
Bit depth : 8 bits
Scan type : Progressive
Compression mode : Lossy
Bits/(Pixel*Frame) : 0.311
Stream size : 1.45 GiB (81%)
Writing library : XviD 1.2.1 (UTC 2008-12-04)

Audio
ID : 1
Format : AC-3
Format/Info : Audio Coding 3
Mode extension : CM (complete main)
Codec ID : 2000
Duration : 2h 2mn
Bit rate mode : Constant
Bit rate : 384 Kbps
Channel(s) : 6 channels
Channel positions : Front: L C R, Side: L R, LFE
Sampling rate : 48.0 KHz
Bit depth : 16 bits
Compression mode : Lossy
Stream size : 335 MiB (18%)
Alignment : Split accross interleaves
Interleave, duration : 40 ms (1.00 video frame)
Interleave, preload duration : 500 ms

#47 maronn

maronn

    X-S Enthusiast

  • Members
  • 1 posts

Posted 27 May 2013 - 06:00 PM

So there is still no real fix for this issue?




0 user(s) are reading this topic

0 members, 0 guests, 0 anonymous users