Jump to content


Photo

Can I Play This Mp4 File?


  • Please log in to reply
1 reply to this topic

#1 Algamish

Algamish

    X-S Enthusiast

  • Members
  • 2 posts

Posted 03 December 2009 - 07:16 PM

Hello everyone!

I have 2 questions:

1. Will I be able to play this MP4 file via USB/CD/DVD on Xbox 360 (concerning "Profile [High@L4.0]", "Max Bitrate [15.7 Mbps]" and "Encoding Settings")?
2. Can I use an external SRT file alongside it?

=====================================================================
=====================================================================
General
Format : MPEG-4
Format profile : Base Media
Codec ID : isom
File size : 696 MiB
Duration : 1h 47mn
Overall bit rate : 908 Kbps

Video
Format : AVC
Format/Info : Advanced Video Codec
Format profile : High@L4.0
Format settings, CABAC : Yes
Format settings, ReFrames : 5 frames
Codec ID : avc1
Codec ID/Info : Advanced Video Coding
Duration : 1h 47mn
Bit rate mode : Variable
Bit rate : 777 Kbps
Maximum bit rate : 15.7 Mbps
Width : 656 pixels
Height : 354 pixels
Display aspect ratio : 1.853
Frame rate mode : Constant
Frame rate : 23.976 fps
Resolution : 24 bits
Colorimetry : 4:2:0
Scan type : Progressive
Bits/(Pixel*Frame) : 0.140
Stream size : 595 MiB (85%)
Writing library : x264 core 79 r1352kGIT d487de4
Encoding settings : cabac=1 / ref=5 / deblock=1:0:0 / analyse=0x3:0x133 / me=tesa / subme=10 / psy=1 / psy_rd=1.0:0.0 / mixed_ref=1 / me_range=16 / chroma_me=1 / trellis=2 / 8x8dct=1 / cqm=0 / deadzone=21,11 / chroma_qp_offset=-2 / threads=3 / nr=0 / decimate=1 / mbaff=0 / constrained_intra=0 / bframes=4 / b_pyramid=0 / b_adapt=2 / b_bias=0 / direct=1 / wpredb=1 / wpredp=2 / keyint=240 / keyint_min=24 / scenecut=40 / rc_lookahead=40 / rc=2pass / mbtree=1 / bitrate=777 / ratetol=1.0 / qcomp=0.60 / qpmin=10 / qpmax=51 / qpstep=4 / cplxblur=20.0 / qblur=0.5 / vbv_maxrate=25000 / vbv_bufsize=25000 / ip_ratio=1.40 / aq=1:1.00

Audio
Format : AAC
Format/Info : Advanced Audio Codec
Format version : Version 4
Format profile : LC
Format settings, SBR : No
Codec ID : 40
Duration : 1h 47mn
Bit rate mode : Variable
Bit rate : 128 Kbps
Maximum bit rate : 137 Kbps
Channel(s) : 2 channels
Channel positions : L R
Sampling rate : 48.0 KHz
Resolution : 16 bits
Stream size : 98.5 MiB (14%)
=====================================================================
=====================================================================

Thank you all in advance!

#2 Algamish

Algamish

    X-S Enthusiast

  • Members
  • 2 posts

Posted 04 December 2009 - 10:05 AM

Anyone!?

Unfortunately I don't have an Xbox 360, so I can't test this file on it. I would be really glad if one of you can test these settings on the console and see if it works:

ref=5 / me=tesa / subme=10 / trellis=2 / bframes=4 / b_adapt=2

I'm sure about the rest of the settings.

Thank you!




0 user(s) are reading this topic

0 members, 0 guests, 0 anonymous users