Jump to content


Photo

Best Video Playback Quality For Xbmc


  • Please log in to reply
3 replies to this topic

#1 jonnymcfly

jonnymcfly

    X-S Enthusiast

  • Members
  • 4 posts

Posted 22 December 2011 - 01:12 AM

I am just wondering if someone can tell me or direct me to thread that shows the best video qualities for playback on the xbox1 with Xbmc.

I ask simply because I noticed that some blueray and dvdrips just don't play well. The video is not able to keep up with the audio. Is there a max fps or quality I should be looking for when selecting movie files? It seems the xbox may be getting outdated in reference to the video quality it can play. I like Xbmc cuz it not only allows my deaf ears to insert subtitles, but also to adjust the timing of those subtitles.

I have a v1.6 ndure modded xbox with the latest t3ch version of XBMC from http://www.sshcs.com/xbmc/
Playing on a standard Def TV.

Edited by jonnymcfly, 22 December 2011 - 01:14 AM.


#2 NobodyHere

NobodyHere

    X-S Member

  • Members
  • Pip
  • 102 posts

Posted 22 December 2011 - 10:13 PM

You probably would have been better off asking this over in the Xbmc4Xbox sub-forum, or the official xbmc4xbox forums. http://www.xbmc4xbox.org/forum/

You can find links to the latest SVN, or T3CH, builds at the top of the forum there.

Here's a chart for encoding your own videos: http://xbmc4xbox.org...h_XBMC_For_Xbox

It's been said that with the right bitrates, one can even get decent 720p playback.

BUT, this all means that you have to encode your own videos yourself.

EDIT;

I forgot to mention that I sometimes use my PS3 to playback videos via the 'PS3 Media Server' program. If your PC isn't totally ancient (I actually use a P4@3.4Ghz), you can set it up to stream content from your PC's hard-drive to Xbmc4Xbox as an UPnP server.

Here's a guide by 'Dan Dar3'. http://dandar3.blogs...ranscoding.html

Edited by NobodyHere, 22 December 2011 - 11:05 PM.


#3 jonnymcfly

jonnymcfly

    X-S Enthusiast

  • Members
  • 4 posts

Posted 22 December 2011 - 11:47 PM

biggrin.gif TY !

#4 Movax

Movax

    X-S Freak

  • Members
  • PipPipPipPipPip
  • 1,520 posts
  • Xbox Version:v1.4
  • 360 version:none

Posted 25 December 2011 - 08:52 PM

FYI

Blu ray rip:
ffmpeg -i file.avi
Duration: 01:34:48.65, start: 0.000000, bitrate: 3754 kb/s
Stream #0.0: Video: mpeg4, yuv420p, 1280x696 [PAR 1:1 DAR 160:87], 23.98 tbr, 23.98 tbn, 23.98 tbc
Stream #0.1: Audio: ac3, 48000 Hz, 5.1, s16, 448 kb/s

Plays perfect over samba/windows share.






0 user(s) are reading this topic

0 members, 0 guests, 0 anonymous users